60帧`恶人传 악인전 【2019韩国中文字幕12.07GB】

韩国警服正土系列! 警黑合作…东亚常态,能敢于拍出来的,少! 当年港产电影有,后来也被“道德”淹没了…大陆更是想都别想! 这部片片,当黑社会拿着警官证喊“警察查房”、警察叼着烟,在一边当混混的时候,全片的高度达到了制高点! 结尾更是直逼“东亚司法漏洞”! 想来,杀人魔死在浴室,应该是“踩肥皂摔死”的…

导演: 李元泰
编剧: 李元泰
主演: 马东锡 / 金武烈 / 金成圭 / 刘承睦 / 崔民哲 / 更多...
类型: 剧情 / 动作 / 犯罪
制片国家/地区: 韩国
语言: 韩语
上映日期: 2019-05-15(韩国)
片长: 109分钟
又名: 极恶对决(台) / 恶霸‧魔警‧杀人狂(港) / The Gangster, The Cop, The Devil

罪犯头目张东洙(Don Lee)被一名神秘莫测的连环杀手暴力袭击之后幸存,与当地警探郑泰硕(Kim Moo Yul)形成了一种奇妙的搭档关系,联手捕捉被称为“K”的虐待狂杀手”。

文件信息:

General
Unique ID : 188533540613120780589984467101986265035 (0x8DD63D3833905E3D0A1FB0C3738717CB)
Complete name : G:\【0062】好人传60帧\s-【0062】讹人砖.mkv
Format : Matroska
Format version : Version 4
File size : 12.1 GiB
Duration : 1 h 50 min
Overall bit rate mode : Variable
Overall bit rate : 15.7 Mb/s
Movie name : Гангстер, коп и дьявол / The Gangster, the Cop, the Devil
Encoded date : UTC 2020-05-15 03:49:47
Writing application : mkvmerge v19.0.0 ('Brave Captain') 64-bit
Writing library : libebml v1.3.5 + libmatroska v1.4.8

Video
ID : 2
Format : AVC
Format/Info : Advanced Video Codec
Format profile : High@L4.1
Format settings : CABAC / 5 Ref Frames
Format settings, CABAC : Yes
Format settings, Reference fra : 5 frames
Codec ID : V_MPEG4/ISO/AVC
Duration : 1 h 50 min
Bit rate : 12.0 Mb/s
Width : 1 920 pixels
Height : 800 pixels
Display aspect ratio : 2.40:1
Frame rate mode : Constant
Frame rate : 59.940 (60000/1001) FPS
Color space : YUV
Chroma subsampling : 4:2:0
Bit depth : 8 bits
Scan type : Progressive
Bits/(Pixel*Frame) : 0.130
Stream size : 9.23 GiB (76%)
Title : Талямба
Writing library : x264 core 146 r2538 121396c
Encoding settings : cabac=1 / ref=5 / deblock=1:-2:-2 / analyse=0x3:0x113 / me=umh / subme=9 / psy=1 / psy_rd=1.00:0.25 / mixed_ref=1 / me_range=32 / chroma_me=1 / trellis=2 / 8x8dct=1 / cqm=0 / deadzone=6,6 / fast_pskip=1 / chroma_qp_offset=-4 / threads=12 / lookahead_threads=2 / sliced_threads=0 / nr=0 / decimate=0 / interlaced=0 / bluray_compat=0 / constrained_intra=0 / bframes=8 / b_pyramid=2 / b_adapt=2 / b_bias=0 / direct=3 / weightb=1 / open_gop=0 / weightp=2 / keyint=599 / keyint_min=60 / scenecut=40 / intra_refresh=0 / rc_lookahead=60 / rc=2pass / mbtree=1 / bitrate=12000 / ratetol=1.0 / qcomp=0.80 / qpmin=0 / qpmax=69 / qpstep=4 / cplxblur=20.0 / qblur=0.5 / vbv_maxrate=50000 / vbv_bufsize=65000 / nal_hrd=none / filler=0 / ip_ratio=1.10 / aq=1:0.50
Language : English
Default : Yes
Forced : No

Audio
ID : 3
Format : DTS XLL
Format/Info : Digital Theater Systems
Commercial name : DTS-HD Master Audio
Codec ID : A_DTS
Duration : 1 h 50 min
Bit rate mode : Variable
Bit rate : 3 686 kb/s
Channel(s) : 6 channels
Channel layout : C L R Ls Rs LFE
Sampling rate : 48.0 kHz
Frame rate : 93.750 FPS (512 SPF)
Bit depth : 24 bits
Compression mode : Lossless
Stream size : 2.84 GiB (24%)
Title : Оригинал
Language : Korean
Default : No
Forced : No

Text
ID : 1
Format : ASS
Codec ID : S_TEXT/ASS
Codec ID/Info : Advanced Sub Station Alpha
Duration : 1 h 46 min
Bit rate : 127 b/s
Count of elements : 1282
Compression mode : Lossless
Stream size : 99.2 KiB (0%)
Default : Yes
Forced : No

恶人传 악인전 【2019韩国中文字幕60帧12.07GB】下载

链接:https://pan.baidu.com/s/1KCow0yH4V_EnNBfHalkTmw
提取码:wwmj

内容来源网络,如有侵权请联系删除
九真电影 » 60帧`恶人传 악인전 【2019韩国中文字幕12.07GB】

小妾币充值说明,以及价格,试看,资源介

升级员外单价最低享受五折优惠,最高免费哦

点右下角签到一次获得1元,可用于购买收费资源

发表评论