60帧`金刚狼1X-Men【2019美国9.44GB】

无数人吐槽这部外传难看,我却相当喜欢,也许是因为对金刚狼漫画角色的大爱,长生不老,永无腐朽之身,战争年代也好科技时代也好,直到新的一代也逝去他还孤独的存在,可惜他哥哥之后的去向没再交代,比起现在这个正义大爱的X战警狼,我更喜欢失忆前那个血性的,为了爱甘愿变成野兽的男人。

导演: 加文·胡德
编剧: 戴维·贝尼奥夫 / 斯基普·伍兹
主演: 休·杰克曼 / 列维·施瑞博尔 / 瑞恩·雷诺兹 / 丹尼·赫斯顿 / 泰勒·克奇 / 更多...
类型: 动作 / 科幻
制片国家/地区: 美国
语言: 英语
上映日期: 2009-05-03(中国大陆) / 2009-05-01(美国)
片长: 107 分钟
又名: X战警前传:金刚狼 / 变种特攻:狼人外传(港) / X战警:金钢狼(台)
IMDb链接: tt0458525

1845年,尚年幼的维克多与詹姆斯兄弟俩在长辈之间一场突如其来争执中唤醒了自身的潜能,詹姆斯情急之下将陌生的生父杀死,自此兄弟两人流落战场,他们凭借不死不衰之身和野兽一般的天赋在各个时代的战争中大开杀戒,直到遇见史崔克少校并加入了他的异能人特殊部队。詹姆斯(休·杰克曼 Hugh Jackman 饰)很快厌倦了对弱势者的杀戮,离开了团队和维克多(列维·施瑞博尔 Liev Schreiber 饰),与女友凯拉隐居在山林中,做了一名伐木工人。六年后,詹姆斯惊闻昔日的超能力队友纷纷被杀害,而杀手正是哥哥维克多,不久连凯拉也遭其毒手,愤怒的詹姆斯与史崔克合作,将自己的身体改造,成为钢筋铁骨的“金刚狼”。金刚狼摆脱军方控制后,发誓要杀死维克多和史崔克为凯拉报仇…

文件信息:

General
Unique ID : 206494061576913231878080455723198604936 (0x9B594F4569C9B3F57A4A01443DBE6688)
Complete name : G:\【0060】金刚lLang\s-【0060】金杠浪.mkv
Format : Matroska
Format version : Version 4
File size : 9.44 GiB
Duration : 1 h 47 min
Overall bit rate : 12.6 Mb/s
Movie name : Tiberiumsun69
Encoded date : UTC 2020-05-15 03:46:25
Writing application : mkvmerge v19.0.0 ('Brave Captain') 64-bit
Writing library : libebml v1.3.5 + libmatroska v1.4.8

Video
ID : 2
Format : AVC
Format/Info : Advanced Video Codec
Format profile : High@L4.1
Format settings : CABAC / 4 Ref Frames
Format settings, CABAC : Yes
Format settings, Reference fra : 4 frames
Codec ID : V_MPEG4/ISO/AVC
Duration : 1 h 47 min
Bit rate : 11.9 Mb/s
Width : 1 920 pixels
Height : 816 pixels
Display aspect ratio : 2.35:1
Frame rate mode : Constant
Frame rate : 59.940 (60000/1001) FPS
Color space : YUV
Chroma subsampling : 4:2:0
Bit depth : 8 bits
Scan type : Progressive
Bits/(Pixel*Frame) : 0.127
Stream size : 8.96 GiB (95%)
Writing library : x264 core 130 r2273 b3065e6
Encoding settings : cabac=1 / ref=4 / deblock=1:0:0 / analyse=0x3:0 / me=umh / subme=9 / psy=1 / psy_rd=0.00:0.00 / mixed_ref=1 / me_range=42 / chroma_me=0 / trellis=1 / 8x8dct=1 / cqm=0 / deadzone=21,11 / fast_pskip=0 / chroma_qp_offset=0 / threads=12 / lookahead_threads=1 / sliced_threads=0 / nr=0 / decimate=0 / interlaced=0 / bluray_compat=0 / constrained_intra=0 / bframes=5 / b_pyramid=2 / b_adapt=2 / b_bias=0 / direct=1 / weightb=1 / open_gop=0 / weightp=2 / keyint=594 / keyint_min=59 / scenecut=40 / intra_refresh=0 / rc=crf / mbtree=0 / crf=16.0 / qcomp=0.60 / qpmin=0 / qpmax=69 / qpstep=4 / ip_ratio=1.40 / pb_ratio=1.30 / aq=1:0.90
Language : English
Default : Yes
Forced : No

Audio
ID : 3
Format : AC-3
Format/Info : Audio Coding 3
Commercial name : Dolby Digital
Codec ID : A_AC3
Duration : 1 h 47 min
Bit rate mode : Constant
Bit rate : 640 kb/s
Channel(s) : 6 channels
Channel layout : L R C LFE Ls Rs
Sampling rate : 48.0 kHz
Frame rate : 31.250 FPS (1536 SPF)
Compression mode : Lossy
Stream size : 491 MiB (5%)
Title : Оригинал
Language : English
Service kind : Complete Main
Default : No
Forced : No

Text
ID : 1
Format : UTF-8
Codec ID : S_TEXT/UTF8
Codec ID/Info : UTF-8 Plain Text
Duration : 1 h 41 min
Bit rate : 38 b/s
Count of elements : 848
Stream size : 28.7 KiB (0%)
Default : Yes
Forced : No

金刚狼1X-Men【2019美国60帧9.44GB】

链接:https://pan.baidu.com/s/1QYgv94ZfduoZg_NA7t1igQ
提取码:818t

内容来源网络,如有侵权请联系删除
九真电影 » 60帧`金刚狼1X-Men【2019美国9.44GB】

小妾币充值说明,以及价格,试看,资源介

升级员外单价最低享受五折优惠,最高免费哦

点右下角签到一次获得1元,可用于购买收费资源

发表评论