60帧`复仇者联盟1 The Avengers 【2012美国6.75GB】

从头燃到尾!各种爽!各种给力!唐尼大眼睛各种吐槽!浩克裸一把还卖萌,你是天神我照摔!锤哥一边和抖森搞基一边雷!抖森那个演技啊啧啧太赞了!杰瑞米鹰眼帅气神射!性感女神斯嘉丽高超骗术还有漂亮身手!美国队长的屁股和胸配合3D效果要爆表!边看边高潮,湿了好几次!今年上映大片里第一部佳作!

导演: 乔斯·韦登
编剧: 乔斯·韦登 / 扎克·佩恩
主演: 小罗伯特·唐尼 / 克里斯·埃文斯 / 斯嘉丽·约翰逊 / 克里斯·海姆斯沃斯 / 杰瑞米·雷纳 / 更多...
类型: 动作 / 科幻 / 奇幻 / 冒险
官方网站: avengers.marvel.com
制片国家/地区: 美国
语言: 英语 / 俄语
上映日期: 2012-05-05(中国大陆) / 2012-05-04(美国)
片长: 142分钟
又名: 复仇者 / 复联 / 妇联(豆友译名)
IMDb链接: tt0848228

一股突如其来的强大邪恶势力对地球造成致命威胁,没有任何一个超级英雄能够单独抵挡。长期致力于保护全球安危的神盾局(SHIELD)感到措手不及,其指挥官“独眼侠”尼克·弗瑞(塞缪尔·杰克逊 Samuel L. Jackson 饰)意识到他必须创建一个“史上最强”的联盟组织, 云集各方超级英雄一起发威,才能拯救世界于水深火热,抵御黑暗势力的侵袭。于是由六大超级英雄——“钢铁侠”(小罗伯特·唐尼 Robert Downey Jr. 饰)、“雷神” (克里斯·海姆斯沃斯 Chris Hemsworth 饰)、“美国队长”(克里斯·埃文斯 Chris Evans 饰)、“绿巨人” (马克·鲁弗洛 Mark Ruffalo 饰)、“黑寡妇”(斯嘉丽·约翰逊 Scarlett Johansson 饰)和“鹰眼”(杰瑞米·雷纳 Jeremy Renner 饰)组成的 “复仇者联盟”应运而生。他们各显神通,团结一心,终于战胜了邪恶势力,保证了地球的安全。

文件信息:

General
Unique ID : 95215260932800346180411970574495343506 (0x47A1CACEE28627D4F5D553615D456392)
Complete name : G:\【0056】妇联1-60帧\s-【0056】富联1.mkv
Format : Matroska
Format version : Version 4
File size : 6.75 GiB
Duration : 2 h 22 min
Overall bit rate : 6 764 kb/s
Movie name : Мстители.(2012).BDRip.720p.[envy].[60fps]
Encoded date : UTC 2020-05-15 03:44:02
Writing application : mkvmerge v19.0.0 ('Brave Captain') 64-bit
Writing library : libebml v1.3.5 + libmatroska v1.4.8

Video
ID : 2
Format : AVC
Format/Info : Advanced Video Codec
Format profile : High@L4
Format settings : CABAC / 9 Ref Frames
Format settings, CABAC : Yes
Format settings, Reference fra : 9 frames
Codec ID : V_MPEG4/ISO/AVC
Duration : 2 h 22 min
Bit rate : 6 312 kb/s
Width : 1 280 pixels
Height : 720 pixels
Display aspect ratio : 16:9
Frame rate mode : Constant
Frame rate : 59.940 FPS
Color space : YUV
Chroma subsampling : 4:2:0
Bit depth : 8 bits
Scan type : Progressive
Bits/(Pixel*Frame) : 0.114
Stream size : 6.30 GiB (93%)
Title : Мстители.(2012).BDRip.720p.[envy].[60fps]
Writing library : x264 core 130 r2273 b3065e6
Encoding settings : cabac=1 / ref=9 / deblock=1:0:0 / analyse=0x3:0x113 / me=umh / subme=11 / psy=1 / psy_rd=1.00:0.00 / mixed_ref=1 / me_range=24 / chroma_me=1 / trellis=2 / 8x8dct=1 / cqm=0 / deadzone=21,11 / fast_pskip=0 / chroma_qp_offset=-2 / threads=12 / lookahead_threads=1 / sliced_threads=0 / nr=0 / decimate=1 / interlaced=0 / bluray_compat=0 / constrained_intra=0 / bframes=5 / b_pyramid=2 / b_adapt=2 / b_bias=0 / direct=3 / weightb=1 / open_gop=0 / weightp=2 / keyint=250 / keyint_min=25 / scenecut=40 / intra_refresh=0 / rc=crf / mbtree=0 / crf=17.0 / qcomp=0.60 / qpmin=0 / qpmax=69 / qpstep=4 / ip_ratio=1.40 / pb_ratio=1.30 / aq=2:1.00
Language : English
Default : Yes
Forced : No

Audio
ID : 3
Format : AC-3
Format/Info : Audio Coding 3
Commercial name : Dolby Digital
Codec ID : A_AC3
Duration : 2 h 22 min
Bit rate mode : Constant
Bit rate : 448 kb/s
Channel(s) : 6 channels
Channel layout : L R C LFE Ls Rs
Sampling rate : 48.0 kHz
Frame rate : 31.250 FPS (1536 SPF)
Compression mode : Lossy
Stream size : 458 MiB (7%)
Title : Eng
Language : English
Service kind : Complete Main
Default : No
Forced : No

Text
ID : 1
Format : UTF-8
Codec ID : S_TEXT/UTF8
Codec ID/Info : UTF-8 Plain Text
Duration : 2 h 16 min
Bit rate : 98 b/s
Count of elements : 1749
Stream size : 98.4 KiB (0%)
Default : Yes
Forced : No

复仇者联盟 The Avengers 【2012美国60帧6.75GB】

链接:https://pan.baidu.com/s/1kQdHKFAVWf6dp3Lbkcmjvg
提取码:2yna

内容来源网络,如有侵权请联系删除
九真电影 » 60帧`复仇者联盟1 The Avengers 【2012美国6.75GB】

小妾币充值说明,以及价格,试看,资源介

升级员外单价最低享受五折优惠,最高免费哦

点右下角签到一次获得1元,可用于购买收费资源

1 评论

  1. 感谢分享

发表评论