60帧·地狱神探康斯坦丁 Constantine 【2005美国6.63GB】

虽然这是一个大型的禁烟广告,但是!!奇洛李维斯太太太太太帅了啊啊啊啊啊!!我整个身心都沉浸在他抽烟的姿势里不能自拔花痴了好几天

导演: 弗朗西斯·劳伦斯
编剧: Kevin Brodbin / Frank A. Cappello / Jamie Delano / 加思·恩尼斯
主演: 基努·里维斯 / 蕾切尔·薇兹 / 希亚·拉博夫 / 杰曼·翰苏 / 蒂尔达·斯文顿 / 更多...
类型: 动作 / 惊悚 / 奇幻
制片国家/地区: 美国 / 德国
语言: 英语 / 菲律宾语 / 塔加路族语
上映日期: 2005-02-18(美国)
片长: 121 分钟
又名: 地狱神探 / 魔间行者 / 康斯坦汀:驱魔神探
IMDb链接: tt0360486

康斯坦丁(奇诺•李维斯 Keanu Reeves 饰)生来就能看出游走在人间的恶魔与天使,这令年幼时的他十分痛苦,曾经自杀想以这种方式结束自己的痛苦。后来获悉了上帝与撒旦之间有过协议,谁也不能直接插足人间,只能间接诱使人们选择天堂与地狱,而自杀者不得上天堂,他便开始利用自己天赋的超能力帮助铲除人间的恶魔,以此祈求获得一张天堂的门票。
一次在帮助一名女警调查她的妹妹的离奇死亡事件时,康斯坦丁意外获释了天使长加百利意图和撒旦的儿子联手统治人间的阴谋。康斯坦丁当然要竭尽全力阻止这一黑暗降临人间……

文件信息:

General
Unique ID : 73319726193998229286118448683925317910 (0x3728DD99371BB9462D9876CC86532916)
Complete name : G:\【0053】低于真探-60帧-\s-【0053】抵御真贪.mkv
Format : Matroska
Format version : Version 4
File size : 6.63 GiB
Duration : 2 h 0 min
Overall bit rate : 7 861 kb/s
Movie name : Constantine (2005) BDRemux 1080p
Encoded date : UTC 2020-05-15 03:41:42
Writing application : mkvmerge v19.0.0 ('Brave Captain') 64-bit
Writing library : libebml v1.3.5 + libmatroska v1.4.8

Video
ID : 2
Format : AVC
Format/Info : Advanced Video Codec
Format profile : High@L4.1
Format settings : CABAC / 6 Ref Frames
Format settings, CABAC : Yes
Format settings, Reference fra : 6 frames
Codec ID : V_MPEG4/ISO/AVC
Duration : 2 h 0 min
Bit rate : 7 657 kb/s
Width : 1 280 pixels
Height : 536 pixels
Display aspect ratio : 2.40:1
Frame rate mode : Constant
Frame rate : 59.940 (59940/1000) FPS
Color space : YUV
Chroma subsampling : 4:2:0
Bit depth : 8 bits
Scan type : Progressive
Bits/(Pixel*Frame) : 0.186
Stream size : 6.46 GiB (97%)
Title : Release by mimok
Writing library : x264 core 125 r2208 d9d2288
Encoding settings : cabac=1 / ref=6 / deblock=0:0:0 / analyse=0x3:0x133 / me=umh / subme=8 / psy=1 / psy_rd=1.00:0.15 / mixed_ref=1 / me_range=20 / chroma_me=1 / trellis=2 / 8x8dct=1 / cqm=0 / deadzone=21,11 / fast_pskip=0 / chroma_qp_offset=-3 / threads=6 / lookahead_threads=1 / sliced_threads=0 / nr=0 / decimate=0 / interlaced=0 / bluray_compat=0 / constrained_intra=0 / bframes=8 / b_pyramid=2 / b_adapt=2 / b_bias=0 / direct=1 / weightb=1 / open_gop=0 / weightp=2 / keyint=600 / keyint_min=59 / scenecut=40 / intra_refresh=0 / rc=crf / mbtree=0 / crf=17.0 / qcomp=0.63 / qpmin=10 / qpmax=51 / qpstep=4 / ip_ratio=1.40 / pb_ratio=1.30 / aq=1:1.20
Default : Yes
Forced : No

Audio
ID : 3
Format : AAC LC
Format/Info : Advanced Audio Codec Low Complexity
Codec ID : A_AAC-2
Duration : 2 h 0 min
Bit rate : 199 kb/s
Channel(s) : 2 channels
Channel layout : L R
Sampling rate : 48.0 kHz
Frame rate : 46.875 FPS (1024 SPF)
Compression mode : Lossy
Stream size : 172 MiB (3%)
Default : Yes
Forced : No

Text
ID : 1
Format : UTF-8
Codec ID : S_TEXT/UTF8
Codec ID/Info : UTF-8 Plain Text
Duration : 2 h 0 min
Bit rate : 29 b/s
Count of elements : 1041
Stream size : 26.4 KiB (0%)
Default : Yes
Forced : No

地狱神探康斯坦丁 Constantine 【2005美国60帧6.63GB】下载

链接:https://pan.baidu.com/s/1TIBzWei2uvoqCSA5LjidpQ
提取码:prbp

内容来源网络,如有侵权请联系删除
九真电影 » 60帧·地狱神探康斯坦丁 Constantine 【2005美国6.63GB】

小妾币充值说明,以及价格,试看,资源介

升级员外单价最低享受五折优惠,最高免费哦

点右下角签到一次获得1元,可用于购买收费资源

发表评论