60帧·寄生虫 기생충【2019韩国中文字幕12.95GB】

一边是水淹陋室,一边是生日聚会。 一边是冰冷坚硬的体育馆,一边是豪华柔软的后花园。 钱就是熨斗,把一切都烫平了。 他们蹭网、住地下室、为了一份工作不择手段。 当你觉得他们已经够惨的时候,电影突然反转:他们还不是最惨的,还有更惨的。 你富,就一定有比你更富的;你穷,也一定有比你更穷的。 贫富差距就像无数面墙,将人分为了三六九等。 这面墙,任凭风吹日晒雨淋也岿然屹立,纹丝不动。 朴夫妇看起来傻乎乎的,可他们还是越来越有钱; 金基泽一家聪明过人,可还是翻不了身。 你以为找个好工作,有份好薪水,就摆脱了贫穷的身份,其实还差了十万八千里。 你能洗掉衣服的汗味,却洗不掉已经融入血液的地下室的气味。 你爬了十层楼、二十层楼,可能才刚刚到达别人的地下室。 他们是虫子,所以他们生活艰难; 他们是虫子,所以什么都杀不死他们。

导演: 奉俊昊
编剧: 奉俊昊 / 韩进元
主演: 宋康昊 / 李善均 / 赵汝贞 / 崔宇植 / 朴素丹 / 更多...
类型: 剧情 / 喜剧
制片国家/地区: 韩国
语言: 韩语 / 英语
上映日期: 2019-05-21(戛纳电影节) / 2019-05-30(韩国)
片长: 132分钟
又名: 寄生上流(台) / 上流寄生族(港) / 패러사이트 / Parasite / Gisaengchung
IMDb链接: tt6751668

基宇(崔宇植 饰)出生在一个贫穷的家庭之中,和妹妹基婷(朴素丹 饰)以及父母在狭窄的地下室里过着相依为命的日子。一天,基宇的同学上门拜访,他告诉基宇,自己在一个有钱人家里给他们的女儿做家教,太太是一个头脑简单出手又阔绰的女人,因为自己要出国留学,所以将家教的职位暂时转交给基宇。
就这样,基宇来到了朴社长(李善均 饰)家中,并且见到了他的太太(赵汝贞 饰),没过多久,基宇的妹妹和父母也如同寄生虫一般的进入了朴社长家里工作。然而,他们的野心并没有止步于此,基宇更是和大小姐坠入了爱河。随着时间的推移,朴社长家里隐藏的秘密渐渐浮出了水面。

文件信息:

General
Unique ID : 218233853861819701589984587176033528702 (0xA42E4FB81DEBF1E9D5C61D5046162B7E)
Complete name : G:\【0051】鸡生虫\s-【0051】寄生手.mkv
Format : Matroska
Format version : Version 4
File size : 13.0 GiB
Duration : 2 h 12 min
Overall bit rate mode : Variable
Overall bit rate : 14.1 Mb/s
Movie name : Паразиты / Gisaengchung (Parasite)
Encoded date : UTC 2020-05-15 03:36:58
Writing application : mkvmerge v19.0.0 ('Brave Captain') 64-bit
Writing library : libebml v1.3.5 + libmatroska v1.4.8
Cover : Yes
Attachments : cover_land.jpg / small_cover.jpg / small_cover_land.jpg / cover.jpg

Video
ID : 2
Format : AVC
Format/Info : Advanced Video Codec
Format profile : High@L4.1
Format settings : CABAC / 5 Ref Frames
Format settings, CABAC : Yes
Format settings, Reference fra : 5 frames
Codec ID : V_MPEG4/ISO/AVC
Duration : 2 h 12 min
Bit rate : 10 000 kb/s
Width : 1 920 pixels
Height : 800 pixels
Display aspect ratio : 2.40:1
Frame rate mode : Constant
Frame rate : 59.940 (60000/1001) FPS
Color space : YUV
Chroma subsampling : 4:2:0
Bit depth : 8 bits
Scan type : Progressive
Bits/(Pixel*Frame) : 0.109
Stream size : 9.20 GiB (71%)
Title : Талямба
Writing library : x264 core 146 r2538 121396c
Encoding settings : cabac=1 / ref=5 / deblock=1:-2:-2 / analyse=0x3:0x113 / me=umh / subme=9 / psy=1 / psy_rd=1.00:0.25 / mixed_ref=1 / me_range=32 / chroma_me=1 / trellis=2 / 8x8dct=1 / cqm=0 / deadzone=6,6 / fast_pskip=1 / chroma_qp_offset=-4 / threads=12 / lookahead_threads=2 / sliced_threads=0 / nr=0 / decimate=0 / interlaced=0 / bluray_compat=0 / constrained_intra=0 / bframes=8 / b_pyramid=2 / b_adapt=2 / b_bias=0 / direct=3 / weightb=1 / open_gop=0 / weightp=2 / keyint=599 / keyint_min=60 / scenecut=40 / intra_refresh=0 / rc_lookahead=60 / rc=2pass / mbtree=1 / bitrate=10000 / ratetol=1.0 / qcomp=0.80 / qpmin=0 / qpmax=69 / qpstep=4 / cplxblur=20.0 / qblur=0.5 / vbv_maxrate=50000 / vbv_bufsize=65000 / nal_hrd=none / filler=0 / ip_ratio=1.10 / aq=1:0.50
Language : English
Default : Yes
Forced : No

Audio
ID : 3
Format : MLP FBA 16-ch
Format/Info : Meridian Lossless Packing FBA with 16-channel presentation
Commercial name : Dolby TrueHD with Dolby Atmos
Codec ID : A_TRUEHD
Duration : 2 h 12 min
Bit rate mode : Variable
Bit rate : 4 042 kb/s
Maximum bit rate : 6 816 kb/s
Channel(s) : 8 channels
Channel layout : L R C LFE Ls Rs Lb Rb
Sampling rate : 48.0 kHz
Frame rate : 1 200.000 FPS (40 SPF)
Compression mode : Lossless
Stream size : 3.73 GiB (29%)
Title : Оригинал
Language : Korean
Default : No
Forced : No
Number of dynamic objects : 11
Bed channel count : 1 channel
Bed channel configuration : LFE

Text
ID : 1
Format : UTF-8
Codec ID : S_TEXT/UTF8
Codec ID/Info : UTF-8 Plain Text
Duration : 2 h 7 min
Bit rate : 45 b/s
Count of elements : 1752
Stream size : 42.8 KiB (0%)
Default : Yes
Forced : No

寄生虫 기생충【2019韩国中文字幕60帧12.95GB】

链接:https://pan.baidu.com/s/1GPU1RhPfaTd4fkS-q18_sg
提取码:inoh
复制这段内容后打开百度网盘手机App,操作更方便哦

内容来源网络,如有侵权请联系删除
九真电影 » 60帧·寄生虫 기생충【2019韩国中文字幕12.95GB】

小妾币充值说明,以及价格,试看,资源介

升级员外单价最低享受五折优惠,最高免费哦

点右下角签到一次获得1元,可用于购买收费资源

发表评论