60帧·血肉之躯 Warm Bodies【2013 美国中文字幕8.5GB】

这片子比想象中搞笑很多很多啊,所有人都在不停地卖萌,一脸血!尼古拉斯霍特这个角色真是太蠢萌啦啊啊啊!硬要跟暮光比的话,既然都是爱情片,那弄得可爱搞笑点自然讨人喜欢多了。女主挺好看,但有些角度神似暮光女,大概这种相貌真的适合演青春片。

导演: 乔纳森·莱文
编剧: 乔纳森·莱文 / 艾萨克·马里昂
主演: 尼古拉斯·霍尔特 / 泰莉莎·帕尔墨 / 约翰·马尔科维奇 / 戴夫·弗兰科 / 安娜丽·提普顿 / 更多...
类型: 喜剧 / 爱情 / 恐怖
官方网站: warmbodiesmovie.com
制片国家/地区: 美国 / 加拿大
语言: 英语
上映日期: 2013-02-14(中国香港) / 2013-02-01(美国)
片长: 98分钟
又名: 热血丧男(港) / 殭尸哪有那么帅(台) / 温暖的尸体 / 血仍未冷 / 温暖躯壳
IMDb链接: tt1588173

他(尼古拉斯·霍尔特 Nicholas Hoult 饰)是一只生活在末世的僵尸,依稀只记得自己的名字里有个“R”。与世俗观念不同,作为僵尸他能够思考,依旧残存着些许生前记忆。R生活在废弃的班机上,喜欢收集唱片和饰品,除了吃人外似乎与常人没有两样。这一日,R和僵尸好友们外出觅食,期间遭遇一伙从隔离区来到污染区搜寻药品的人类。在残忍吞噬青年佩里(戴夫·弗兰科 Dave Franco 饰)的大脑后,R拥有了对方的记忆,由此也对和佩里同行而来的女孩朱莉(泰莉莎·帕尔墨 Teresa Palmer 饰)产生恻隐与好感。他将女孩带回自己的住地,通过数日的相处渐渐取得对方的信任,而美丽的朱莉也让R找回作为人类久违的温暖和复杂情感……

文件信息:

General
Unique ID : 281120071321785953086839960937789226649 (0xD37DC19F04E9BBA68D92DC3B20597E99)
Complete name : G:\【0049】血肉之躯\s-【0049】雪柔只去.mkv
Format : Matroska
Format version : Version 4
File size : 8.50 GiB
Duration : 1 h 37 min
Overall bit rate : 12.4 Mb/s
Movie name : Warm Bodies (2013) Blu-ray Disc [CZE OPEN MATTE Transfer] 
Encoded date : UTC 2020-05-15 03:34:10
Writing application : mkvmerge v19.0.0 ('Brave Captain') 64-bit
Writing library : libebml v1.3.5 + libmatroska v1.4.8

Video
ID : 2
Format : AVC
Format/Info : Advanced Video Codec
Format profile : High@L4.1
Format settings : CABAC / 6 Ref Frames
Format settings, CABAC : Yes
Format settings, Reference fra : 6 frames
Codec ID : V_MPEG4/ISO/AVC
Duration : 1 h 37 min
Bit rate : 12.1 Mb/s
Width : 1 280 pixels
Height : 720 pixels
Display aspect ratio : 16:9
Frame rate mode : Constant
Frame rate : 59.940 (59940/1000) FPS
Color space : YUV
Chroma subsampling : 4:2:0
Bit depth : 8 bits
Scan type : Progressive
Bits/(Pixel*Frame) : 0.218
Stream size : 8.24 GiB (97%)
Title : Release by mimok
Writing library : x264 core 130 r2273 b3065e6
Encoding settings : cabac=1 / ref=6 / deblock=1:-1:-1 / analyse=0x3:0x133 / me=umh / subme=8 / psy=1 / psy_rd=1.00:0.15 / mixed_ref=1 / me_range=20 / chroma_me=1 / trellis=2 / 8x8dct=1 / cqm=0 / deadzone=21,11 / fast_pskip=0 / chroma_qp_offset=-3 / threads=6 / lookahead_threads=2 / sliced_threads=0 / nr=0 / decimate=0 / interlaced=0 / bluray_compat=0 / constrained_intra=0 / bframes=8 / b_pyramid=2 / b_adapt=2 / b_bias=0 / direct=1 / weightb=1 / open_gop=0 / weightp=2 / keyint=250 / keyint_min=25 / scenecut=40 / intra_refresh=0 / rc=crf / mbtree=0 / crf=17.0 / qcomp=0.63 / qpmin=10 / qpmax=51 / qpstep=4 / ip_ratio=1.40 / pb_ratio=1.30 / aq=2:1.20
Default : Yes
Forced : No

Audio
ID : 3
Format : AC-3
Format/Info : Audio Coding 3
Commercial name : Dolby Digital
Codec ID : A_AC3
Duration : 1 h 37 min
Bit rate mode : Constant
Bit rate : 384 kb/s
Channel(s) : 6 channels
Channel layout : L R C LFE Ls Rs
Sampling rate : 48.0 kHz
Frame rate : 31.250 FPS (1536 SPF)
Compression mode : Lossy
Stream size : 269 MiB (3%)
Service kind : Complete Main
Default : Yes
Forced : No

Text
ID : 1
Format : UTF-8
Codec ID : S_TEXT/UTF8
Codec ID/Info : UTF-8 Plain Text
Duration : 1 h 31 min
Bit rate : 28 b/s
Count of elements : 898
Stream size : 19.3 KiB (0%)
Default : Yes
Forced : No

血肉之躯 Warm Bodies【2013 美国中文字幕8.5GB60帧】

链接:https://pan.baidu.com/s/1t4IH7HlM9-oV_KwlHWMb3Q
提取码:m746
复制这段内容后打开百度网盘手机App,操作更方便哦

内容来源网络,如有侵权请联系删除
九真电影 » 60帧·血肉之躯 Warm Bodies【2013 美国中文字幕8.5GB】

小妾币充值说明,以及价格,试看,资源介

升级员外单价最低享受五折优惠,最高免费哦

点右下角签到一次获得1元,可用于购买收费资源

1 评论

  1. 感谢分享

发表评论