60帧·三国【2010新三国演义1080P中日双语95集全集】

最有诚意最有技术含量的一次翻拍,如果说老三国是对原著毕恭毕敬的参拜,这部三国就是敞开胸怀与原著的一次促膝谈心。 感谢高希希导演朱苏进编剧,和所有用心的演员。

导演: 高希希
编剧: 朱苏进 / 周志方
主演: 陈建斌 / 陆毅 / 于和伟 / 于荣光 / 康凯 / 更多...
类型: 剧情 / 历史 / 战争
制片国家/地区: 中国大陆
语言: 汉语普通话
首播: 2010-05-02(中国大陆)
集数: 95
单集片长: 46分钟
又名: 新三国演义 / Three Kingdoms
IMDb链接: tt1514753

三国的剧情简介 · · · · · ·
东汉末年,朝纲混乱。内有董卓(吕晓禾 饰)巨奸权倾朝野,专横跋扈;外有黄巾军起义,撼动社稷。时有曹操(陈建斌 饰)韬光养晦,欲为国除害。逃出京城后,曹操与各地诸侯袁绍、刘备(于和伟 饰)、孙坚等二十路豪杰会盟,共同讨伐董卓。几番征战,董卓最终死于义子吕布(何润东 饰)之手。此时大汉气数将近,英雄豪杰皆觊觎天下,因此上演了群雄逐鹿的争霸大戏。关羽(于荣光 饰)、张飞、诸葛亮(陆毅 饰)、周瑜、夏侯渊、陆逊、姜维、司马懿(倪大宏 饰)等风云人物相继入世,魏、蜀、吴三分天下,千古传奇流传至今……
本片根据中国古典四大名著之一《三国演义》改编。

General
Complete name : G:\BaiduNetdiskDownload\E49.mp4
Format : MPEG-4
Format profile : Base Media / Version 2
Codec ID : mp42 (mp42/isom/avc1)
File size : 1.61 GiB
Duration : 41 min 15 s
Overall bit rate mode : Variable
Overall bit rate : 5 572 kb/s
Encoded date : UTC 2018-11-17 14:04:07
Tagged date : UTC 2018-11-17 14:04:07
Writing application : TMPGEnc Video Mastering Works 7 Version 7.0.0.1

Video
ID : 1
Format : AVC
Format/Info : Advanced Video Codec
Format profile : High@L4.2
Format settings : CABAC / 4 Ref Frames
Format settings, CABAC : Yes
Format settings, Reference fra : 4 frames
Codec ID : avc1
Codec ID/Info : Advanced Video Coding
Duration : 41 min 15 s
Bit rate mode : Variable
Bit rate : 5 056 kb/s
Maximum bit rate : 12.0 Mb/s
Width : 1 920 pixels
Height : 1 080 pixels
Display aspect ratio : 16:9
Frame rate mode : Constant
Frame rate : 59.940 (60000/1001) FPS
Standard : Component
Color space : YUV
Chroma subsampling : 4:2:0
Bit depth : 8 bits
Scan type : Progressive
Bits/(Pixel*Frame) : 0.041
Stream size : 1.46 GiB (91%)
Writing library : x264 core 155
Encoding settings : cabac=1 / ref=4 / deblock=1:0:0 / analyse=0x3:0x133 / me=umh / subme=10 / psy=1 / psy_rd=1.00:0.00 / mixed_ref=1 / me_range=32 / chroma_me=1 / trellis=2 / 8x8dct=1 / cqm=1 / deadzone=21,11 / fast_pskip=1 / chroma_qp_offset=-2 / threads=18 / lookahead_threads=1 / sliced_threads=0 / slices=1 / nr=0 / decimate=1 / interlaced=0 / minigop=0 / stitchable=1 / constrained_intra=0 / bframes=3 / b_pyramid=2 / b_adapt=2 / b_bias=0 / direct=3 / weightb=1 / open_gop=0 / weightp=2 / keyint=250 / keyint_min=25 / scenecut=60 / intra_refresh=0 / rc_lookahead=60 / rc=crf / mbtree=1 / crf=24.0 / qcomp=0.60 / qpmin=3 / qpmax=69 / qpstep=4 / vbv_maxrate=12000 / vbv_bufsize=12000000 / crf_max=51.0 / nal_hrd=vbr / filler=0 / ip_ratio=1.40 / aq=3:1.00
Encoded date : UTC 2018-11-17 14:04:07
Tagged date : UTC 2018-11-17 14:04:07
Color range : Limited
Color primaries : BT.709
Transfer characteristics : BT.709
Matrix coefficients : BT.709
Codec configuration box : avcC

Audio #1
ID : 2
Format : AAC LC
Format/Info : Advanced Audio Codec Low Complexity
Codec ID : mp4a-40-2
Duration : 41 min 15 s
Bit rate mode : Variable
Bit rate : 253 kb/s
Maximum bit rate : 576 kb/s
Channel(s) : 2 channels
Channel layout : L R
Sampling rate : 48.0 kHz
Frame rate : 46.875 FPS (1024 SPF)
Compression mode : Lossy
Stream size : 74.8 MiB (5%)
Default : Yes
Alternate group : 1
Encoded date : UTC 2018-11-17 14:04:07
Tagged date : UTC 2018-11-17 14:04:07

Audio #2
ID : 3
Format : AAC LC
Format/Info : Advanced Audio Codec Low Complexity
Codec ID : mp4a-40-2
Duration : 41 min 15 s
Bit rate mode : Variable
Bit rate : 253 kb/s
Maximum bit rate : 576 kb/s
Channel(s) : 2 channels
Channel layout : L R
Sampling rate : 48.0 kHz
Frame rate : 46.875 FPS (1024 SPF)
Compression mode : Lossy
Stream size : 74.8 MiB (5%)
Default : Yes
Alternate group : 1
Encoded date : UTC 2018-11-17 14:04:07
Tagged date : UTC 2018-11-17 14:04:07

60帧新三国下载地址:

链接:https://pan.baidu.com/s/1Mex4iQ45ginvQv9Y1nZIuw

员外免费

已有1人支付

内容来源网络,如有侵权请联系删除
九真电影 » 60帧·三国【2010新三国演义1080P中日双语95集全集】

小妾币充值说明,以及价格,试看,资源介

升级员外单价最低享受五折优惠,最高免费哦

点右下角签到一次获得1元,可用于购买收费资源

发表评论