金刚:骷髅岛·60帧【2017美国中文字幕16.92GB】

别的洋人洋女人都身水身汗,唯有我甜甜从头到尾发型都一丝不乱,脸上的妆都没变,这才是天朝上国啊

金刚:骷髅岛 Kong: Skull Island(2017)

导演: 乔丹·沃格特-罗伯茨
编剧: 麦克思·鲍伦斯坦 / 约翰·盖汀斯 / 丹·吉尔罗伊 / 德里克·康纳利
主演: 汤姆·希德勒斯顿 / 布丽·拉尔森 / 塞缪尔·杰克逊 / 约翰·古德曼 / 景甜 / 更多...
类型: 动作 / 奇幻 / 冒险
制片国家/地区: 美国 / 中国大陆 / 澳大利亚 / 加拿大
语言: 英语 / 越南语 / 日语
上映日期: 2017-03-24(中国大陆) / 2017-02-28(伦敦首映) / 2017-03-10(美国)
片长: 119分钟
又名: Skull Island
IMDb链接: tt3731562

上世纪70年代,一支集结了科考队员、探险家、战地摄影记者、军人的探险队,冒险前往南太平洋上的神秘岛屿——骷髅岛。他们的到来惊扰了岛上之神——史上最大金刚。经过一番惨烈的激战之后,探险队员散落在了岛屿各处。此时,队员们才意识到这次探险并不是一次单纯的科考任务,而是去探索怪兽存在的证明。
在这片与世隔绝、危险密布的丛林,无数怪异的史前生物暗藏其中,时刻威胁着他们的生命。队员们还遇到了神秘的原始部落,金刚的身世和其守护岛屿的原因也被逐渐揭开,原来,恐怖阴森的骷髅岛上还蛰伏着更凶狠残暴的怪兽…

文件信息:

General
Unique ID : 166977118890159890755570770711435515494 (0x7D9E9F928ACE2FE12BF71987D27B9666)
Complete name : G:\【0187】金刚骷髅岛\s-【0187】进港·哭喽盗.mkv
Format : Matroska
Format version : Version 4
File size : 16.9 GiB
Duration : 1 h 58 min
Overall bit rate : 20.5 Mb/s
Movie name : Конг: Остров черепа / Kong: Skull Island (2017) BDRip 1080p | 60 fps
Encoded date : UTC 2020-05-15 03:54:02
Writing application : mkvmerge v19.0.0 ('Brave Captain') 64-bit
Writing library : libebml v1.3.5 + libmatroska v1.4.8
Cover : Yes
Attachments : Cover.png

Video
ID : 1
Format : AVC
Format/Info : Advanced Video Codec
Format profile : High@L4.1
Format settings : CABAC / 5 Ref Frames
Format settings, CABAC : Yes
Format settings, Reference fra : 5 frames
Codec ID : V_MPEG4/ISO/AVC
Duration : 1 h 58 min
Bit rate : 20.0 Mb/s
Width : 1 920 pixels
Height : 800 pixels
Display aspect ratio : 2.40:1
Frame rate mode : Constant
Frame rate : 59.940 (60000/1001) FPS
Color space : YUV
Chroma subsampling : 4:2:0
Bit depth : 8 bits
Scan type : Progressive
Bits/(Pixel*Frame) : 0.217
Stream size : 16.5 GiB (98%)
Title : www.60-fps.org
Writing library : x264 core 148 r2744 b97ae06
Encoding settings : cabac=1 / ref=5 / deblock=1:-3:-3 / analyse=0x3:0x113 / me=umh / subme=8 / psy=1 / psy_rd=1.00:0.25 / mixed_ref=1 / me_range=32 / chroma_me=1 / trellis=1 / 8x8dct=1 / cqm=0 / deadzone=6,6 / fast_pskip=1 / chroma_qp_offset=-4 / threads=12 / lookahead_threads=2 / sliced_threads=0 / nr=0 / decimate=0 / interlaced=0 / bluray_compat=0 / constrained_intra=0 / bframes=3 / b_pyramid=2 / b_adapt=1 / b_bias=0 / direct=3 / weightb=1 / open_gop=0 / weightp=2 / keyint=599 / keyint_min=59 / scenecut=40 / intra_refresh=0 / rc_lookahead=50 / rc=2pass / mbtree=1 / bitrate=19999 / ratetol=1.0 / qcomp=0.80 / qpmin=0 / qpmax=69 / qpstep=4 / cplxblur=20.0 / qblur=0.5 / vbv_maxrate=62500 / vbv_bufsize=78125 / nal_hrd=none / filler=0 / ip_ratio=1.10 / aq=1:0.50
Default : Yes
Forced : No

Audio
ID : 2
Format : AC-3
Format/Info : Audio Coding 3
Commercial name : Dolby Digital
Codec ID : A_AC3
Duration : 1 h 58 min
Bit rate mode : Constant
Bit rate : 448 kb/s
Channel(s) : 6 channels
Channel layout : L R C LFE Ls Rs
Sampling rate : 48.0 kHz
Frame rate : 31.250 FPS (1536 SPF)
Compression mode : Lossy
Stream size : 379 MiB (2%)
Title : english
Language : English
Service kind : Complete Main
Default : No
Forced : No

Text
ID : 3
Format : ASS
Codec ID : S_TEXT/ASS
Codec ID/Info : Advanced Sub Station Alpha
Duration : 1 h 57 min
Bit rate : 330 b/s
Count of elements : 2302
Compression mode : Lossless
Stream size : 285 KiB (0%)
Title : www.120zhen.com
Language : Chinese
Default : Yes
Forced : No

金刚:骷髅岛·60帧百度网盘下载:
链接:https://pan.baidu.com/s/12jgTw2c4g3bc6ongJScRaQ
提取码:

员外价 5 折

已有83人支付

内容来源网络,如有侵权请联系删除
九真电影 » 金刚:骷髅岛·60帧【2017美国中文字幕16.92GB】

小妾币充值说明,以及价格,试看,资源介

升级员外单价最低享受五折优惠,最高免费哦

点右下角签到一次获得1元,可用于购买收费资源

发表评论