普罗米修斯·60帧【2012中文字幕国英双语1080P DTS5.1 27.04GB】

文章目录[隐藏]

《异形》迷一定不要错过!居然真的是前传,完全和原作衔接上了,恐怖戏份不多,最恐怖的居然是一幕生产的戏!塞隆女神居然演个这样没存在感的角色,法鲨完全男猪脚。科幻大场面很多,很砸钱,一边看一边心里替导演数钱,《阿拉伯劳伦斯》亮了好几次。另:没人觉得那是X头口爆吗还是我想多了?!

普罗米修斯 Prometheus

导演: 雷德利·斯科特
编剧: 达蒙·林德洛夫 / 乔·斯派茨
主演: 劳米·拉佩斯 / 迈克尔·法斯宾德 / 查理兹·塞隆 / 伊德里斯·艾尔巴 / 盖·皮尔斯 / 更多...
类型: 科幻 / 惊悚 / 冒险
制片国家/地区: 美国 / 英国
语言: 英语 / 苏格兰盖尔语
上映日期: 2012-09-02(中国大陆) / 2012-06-08(美国)
片长: 124分钟(美国) / 122分钟(中国大陆)
又名: 异形前传 / 异形前传:普罗米修斯
IMDb链接: tt1446714
官方小站: 《普罗米修斯》官方小站

21世纪末,人类的科技水平已高度发达,克隆人技术和宇宙航行早已实现,不再是梦想。与此同时,许多科学家仍孜孜不倦追索着人类起源的秘密与真相。通过对许多古老文明的考察与对比,科学家伊丽莎白·肖(Noomi Rapace 饰)和查理·赫洛维(Logan Marshall-Green 饰)发现,人类可能是来自一个遥远星系的外星人创造的。在Weyland公司资助下,他们乘坐维克丝(查理兹·塞隆 Charlize Theron 饰)所掌管的宇宙飞船普罗米修斯号前往那颗未知的星球。
经过对当地的考察,地球人的设想成功得到印证。可是他们贸然探查“神的秘密”的行为,也将自己引入万劫不复的深渊……

上集/下集

General
Unique ID : 194436793637794934002988443983781443268 (0x92472A10991DD9051952583D623236C4)
Complete name : G:\【0171】普罗米修斯多音轨\上.mkv0
Format : Matroska
Format version : Version 4
File size : 14.3 GiB
Duration : 1 h 4 min
Overall bit rate : 31.5 Mb/s
Encoded date : UTC 2020-04-09 10:52:05
Writing application : mkvmerge v19.0.0 ('Brave Captain') 64-bit
Writing library : libebml v1.3.5 + libmatroska v1.4.8
Attachments : 华文楷体.TTF / Cronos_Pro_Subhead.otf
FileExtension_Invalid : mkv mk3d mka mks

Video
ID : 1
Format : AVC
Format/Info : Advanced Video Codec
Format profile : High@L4.1
Format settings : CABAC / 5 Ref Frames
Format settings, CABAC : Yes
Format settings, Reference fra : 5 frames
Codec ID : V_MPEG4/ISO/AVC
Duration : 1 h 4 min
Bit rate : 30.0 Mb/s
Width : 1 920 pixels
Height : 800 pixels
Display aspect ratio : 2.40:1
Frame rate mode : Constant
Frame rate : 59.940 (60000/1001) FPS
Color space : YUV
Chroma subsampling : 4:2:0
Bit depth : 8 bits
Scan type : Progressive
Bits/(Pixel*Frame) : 0.326
Stream size : 13.7 GiB (96%)
Writing library : x264 core 129 r2245 bc13772
Encoding settings : cabac=1 / ref=5 / deblock=1:-2:-2 / analyse=0x3:0x133 / me=esa / subme=10 / psy=1 / psy_rd=1.00:0.00 / mixed_ref=1 / me_range=32 / chroma_me=1 / trellis=2 / 8x8dct=1 / cqm=0 / deadzone=21,11 / fast_pskip=1 / chroma_qp_offset=-2 / threads=12 / lookahead_threads=2 / sliced_threads=0 / nr=0 / decimate=1 / interlaced=0 / bluray_compat=0 / constrained_intra=0 / bframes=8 / b_pyramid=2 / b_adapt=2 / b_bias=0 / direct=3 / weightb=1 / open_gop=0 / weightp=2 / keyint=599 / keyint_min=59 / scenecut=40 / intra_refresh=0 / rc_lookahead=60 / rc=2pass / mbtree=1 / bitrate=30030 / ratetol=1.0 / qcomp=0.60 / qpmin=0 / qpmax=69 / qpstep=4 / cplxblur=20.0 / qblur=0.5 / ip_ratio=1.40 / aq=1:1.00
Language : English
Default : No
Forced : No

Audio #1
ID : 2
Format : AC-3
Format/Info : Audio Coding 3
Commercial name : Dolby Digital
Codec ID : A_AC3
Duration : 1 h 4 min
Bit rate mode : Constant
Bit rate : 640 kb/s
Channel(s) : 6 channels
Channel layout : L R C LFE Ls Rs
Sampling rate : 48.0 kHz
Frame rate : 31.250 FPS (1536 SPF)
Compression mode : Lossy
Stream size : 297 MiB (2%)
Service kind : Complete Main
Default : Yes
Forced : No

Audio #2
ID : 3
Format : AC-3
Format/Info : Audio Coding 3
Commercial name : Dolby Digital
Codec ID : A_AC3
Duration : 1 h 4 min
Bit rate mode : Constant
Bit rate : 640 kb/s
Channel(s) : 6 channels
Channel layout : L R C LFE Ls Rs
Sampling rate : 48.0 kHz
Frame rate : 31.250 FPS (1536 SPF)
Compression mode : Lossy
Stream size : 296 MiB (2%)
Language : Chinese
Service kind : Complete Main
Default : No
Forced : No

Text
ID : 4
Format : UTF-8
Codec ID : S_TEXT/UTF8
Codec ID/Info : UTF-8 Plain Text
Duration : 1 h 3 min
Bit rate : 42 b/s
Count of elements : 863
Stream size : 20.0 KiB (0%)
Language : Chinese
Default : Yes
Forced : No
General
Unique ID : 22440646067355417874062116823058866620 (0x10E1E945ED50BF0022CCBEB97E07E1BC)
Complete name : G:\【0171】普罗米修斯多音轨\下.mkv0
Format : Matroska
Format version : Version 4
File size : 12.8 GiB
Duration : 58 min 53 s
Overall bit rate : 31.1 Mb/s
Encoded date : UTC 2020-04-09 13:21:14
Writing application : mkvmerge v19.0.0 ('Brave Captain') 64-bit
Writing library : libebml v1.3.5 + libmatroska v1.4.8
Attachments : 华文楷体.TTF / Cronos_Pro_Subhead.otf
FileExtension_Invalid : mkv mk3d mka mks

Video
ID : 1
Format : AVC
Format/Info : Advanced Video Codec
Format profile : High@L4.1
Format settings : CABAC / 5 Ref Frames
Format settings, CABAC : Yes
Format settings, Reference fra : 5 frames
Codec ID : V_MPEG4/ISO/AVC
Duration : 58 min 53 s
Bit rate : 29.8 Mb/s
Width : 1 920 pixels
Height : 800 pixels
Display aspect ratio : 2.40:1
Frame rate mode : Constant
Frame rate : 59.940 (60000/1001) FPS
Color space : YUV
Chroma subsampling : 4:2:0
Bit depth : 8 bits
Scan type : Progressive
Bits/(Pixel*Frame) : 0.324
Stream size : 12.3 GiB (96%)
Language : English
Default : No
Forced : No

Audio #1
ID : 2
Format : AC-3
Format/Info : Audio Coding 3
Commercial name : Dolby Digital
Codec ID : A_AC3
Duration : 58 min 53 s
Bit rate mode : Constant
Bit rate : 640 kb/s
Channel(s) : 6 channels
Channel layout : L R C LFE Ls Rs
Sampling rate : 48.0 kHz
Frame rate : 31.250 FPS (1536 SPF)
Compression mode : Lossy
Delay relative to video : 31 ms
Stream size : 269 MiB (2%)
Service kind : Complete Main
Default : Yes
Forced : No

Audio #2
ID : 3
Format : AC-3
Format/Info : Audio Coding 3
Commercial name : Dolby Digital
Codec ID : A_AC3
Duration : 58 min 53 s
Bit rate mode : Constant
Bit rate : 640 kb/s
Channel(s) : 6 channels
Channel layout : L R C LFE Ls Rs
Sampling rate : 48.0 kHz
Frame rate : 31.250 FPS (1536 SPF)
Compression mode : Lossy
Stream size : 270 MiB (2%)
Service kind : Complete Main
Default : No
Forced : No

Text
ID : 4
Format : UTF-8
Codec ID : S_TEXT/UTF8
Codec ID/Info : UTF-8 Plain Text
Duration : 58 min 38 s
Bit rate : 28 b/s
Count of elements : 562
Stream size : 12.2 KiB (0%)
Default : Yes
Forced : No
内容来源网络,如有侵权请联系删除
九真电影 » 普罗米修斯·60帧【2012中文字幕国英双语1080P DTS5.1 27.04GB】

小妾币充值说明,以及价格,试看,资源介

升级员外单价最低享受五折优惠,最高免费哦

点右下角签到一次获得1元,可用于购买收费资源

2 评论

发表评论