60帧·奇异博士【2016国语多音轨1080P中英文字幕19.41GB】

《盗梦空间》的空间幻想+《明日边缘》(土拨鼠之日)的时间概念+《超体》的物质与意识;然后永远的客串王斯坦·李;逗趣好玩的斗篷估计会是又一萌物;“我可能不会赢,但我输得起”;坚持到最后,双彩蛋,锤哥啤酒,哈哈哈。(最后,安全第一,开车不要接打电话。)

斯特兰奇博士 / 史特兰奇博士 / 奇怪博士 / 怪奇医生 / 奇异医生 / 史奇医生 / Dr. Strange

导演: 斯科特·德瑞克森
编剧: 史蒂夫·迪特寇 / 托马斯·迪恩·唐纳利 / 斯坦·李 / 乔·斯派茨 / 约书亚·奥本海默
主演: 本尼迪克特·康伯巴奇 / 蒂尔达·斯文顿 / 麦斯·米科尔森 / 切瓦特·埃加福 / 瑞秋·麦克亚当斯 / 更多...
类型: 动作 / 奇幻 / 冒险
制片国家/地区: 美国
语言: 英语
上映日期: 2016-11-04(中国大陆/美国) / 2016-10-25(英国)
片长: 115分钟
又名: 斯特兰奇博士 / 史特兰奇博士 / 奇怪博士 / 怪奇医生 / 奇异医生 / 史奇医生 / Dr. Strange
IMDb链接: tt1211837
斯特兰奇博士(本尼迪克特·康伯巴奇 Benedict Cumberbatch 饰)是一名外科手术医生,他拥有着高超的智商和精湛的技艺,是医院乃至整个医学界的传奇人物。某一日,斯特兰奇博士遭遇了一场可怕的车祸,尽管保住了双手,但这双手伤痕累累不住颤抖,这也就意味着,他再也不能拿起手术刀,站在无影灯下了。
斯特兰奇博士的生活就此失去了意义陷入了绝望之中,他决定远赴尼泊尔,寻找传说中能够治愈他双手的神秘力量。在尼泊尔,风尘仆仆的斯特兰奇博士拜入了神秘的古一法师(蒂尔达·斯文顿 Tilda Swinton 饰)门下,成为了其弟子,与此同时,古一法师曾经的弟子卡西利亚斯(麦斯·米科尔森 饰)亦在虎视眈眈,企图完成他获得永生的大业。 ©

影片去除了片头片尾,所以是1 h 46 min,并不是删减版本,亲自调校,完美匹配了公映国语音轨,原声和配音都是5.1声道,可以自己切换原声/国语

General
Unique ID : 277109060337185651652581104838749092500 (0xD0794382EBAB220D50B841E0D7767A94)
Complete name : G:\奇异医生国语多音轨.mkv
Format : Matroska
Format version : Version 4
File size : 19.4 GiB
Duration : 1 h 46 min
Overall bit rate : 25.9 Mb/s
Encoded date : UTC 2020-03-29 09:10:27
Writing application : mkvmerge v36.0.0 ('Is That Jazz?') 64-bit
Writing library : libebml v1.3.9 + libmatroska v1.5.2
Cover : Yes
Attachments : Cover.png

Video
ID : 1
Format : AVC
Format/Info : Advanced Video Codec
Format profile : High@L4.1
Format settings : CABAC / 5 Ref Frames
Format settings, CABAC : Yes
Format settings, Reference fra : 5 frames
Codec ID : V_MPEG4/ISO/AVC
Duration : 1 h 46 min
Bit rate : 25.1 Mb/s
Width : 1 920 pixels
Height : 800 pixels
Display aspect ratio : 2.40:1
Frame rate mode : Constant
Frame rate : 59.940 (60000/1001) FPS
Color space : YUV
Chroma subsampling : 4:2:0
Bit depth : 8 bits
Scan type : Progressive
Bits/(Pixel*Frame) : 0.272
Stream size : 18.7 GiB (97%)
Default : No
Forced : No

Audio #1
ID : 2
Format : AC-3
Format/Info : Audio Coding 3
Commercial name : Dolby Digital
Codec ID : A_AC3
Duration : 1 h 46 min
Bit rate mode : Constant
Bit rate : 640 kb/s
Channel(s) : 6 channels
Channel layout : L R C LFE Ls Rs
Sampling rate : 48.0 kHz
Frame rate : 31.250 FPS (1536 SPF)
Compression mode : Lossy
Stream size : 489 MiB (2%)
Language : English
Service kind : Complete Main
Default : No
Forced : No

Audio #2
ID : 4
Format : AC-3
Format/Info : Audio Coding 3
Commercial name : Dolby Digital
Codec ID : A_AC3
Duration : 1 h 46 min
Bit rate mode : Constant
Bit rate : 192 kb/s
Channel(s) : 6 channels
Channel layout : L R C LFE Ls Rs
Sampling rate : 48.0 kHz
Frame rate : 31.250 FPS (1536 SPF)
Compression mode : Lossy
Stream size : 147 MiB (1%)
Language : Chinese
Service kind : Complete Main
Default : Yes
Forced : No

Text
ID : 3
Format : UTF-8
Codec ID : S_TEXT/UTF8
Codec ID/Info : UTF-8 Plain Text
Duration : 1 h 46 min
Bit rate : 87 b/s
Count of elements : 1211
Stream size : 68.5 KiB (0%)
Default : No
Forced : No

链接:https://pan.baidu.com/s/10EP9uD6EJGDH7VA8FXl3vA
提取码:h0hh
复制这段内容后打开百度网盘手机App,操作更方便哦--来自百度网盘超级会员V5的分享

内容来源网络,如有侵权请联系删除
九真电影 » 60帧·奇异博士【2016国语多音轨1080P中英文字幕19.41GB】

小妾币充值说明,以及价格,试看,资源介

升级员外单价最低享受五折优惠,最高免费哦

点右下角签到一次获得1元,可用于购买收费资源

发表评论